找回密碼
 注冊

QQ登錄

只需一步,快速開始

[韓國 3D 4K 演唱會現場]BoA - Hurricane Venus(高碼率 HEVC)[2160P/MKV/1.13GB]

420
回復
144557
查看
[復制鏈接]
1#
來源:4K視頻下載 2017-4-9 21:19:54 回帖獎勵 |閱讀模式
[韓國 3D 4K 演唱會現場]BoA - Hurricane Venus(高碼率 HEVC)[2160P/MKV/1.13GB]
[韓國 3D 4K 演唱會現場]BoA - Hurricane Venus(高碼率 HEVC)[2160P/MKV/1.13GB] [韓國 3D 4K 演唱會現場]BoA - Hurricane Venus(高碼率 HEVC)[2160P/MKV/1.13GB] [韓國 3D 4K 演唱會現場]BoA - Hurricane Venus(高碼率 HEVC)[2160P/MKV/1.13GB] [韓國 3D 4K 演唱會現場]BoA - Hurricane Venus(高碼率 HEVC)[2160P/MKV/1.13GB] [韓國 3D 4K 演唱會現場]BoA - Hurricane Venus(高碼率 HEVC)[2160P/MKV/1.13GB] [韓國 3D 4K 演唱會現場]BoA - Hurricane Venus(高碼率 HEVC)[2160P/MKV/1.13GB] [韓國 3D 4K 演唱會現場]BoA - Hurricane Venus(高碼率 HEVC)[2160P/MKV/1.13GB] [韓國 3D 4K 演唱會現場]BoA - Hurricane Venus(高碼率 HEVC)[2160P/MKV/1.13GB] [韓國 3D 4K 演唱會現場]BoA - Hurricane Venus(高碼率 HEVC)[2160P/MKV/1.13GB]

General
Unique ID : 183376109510193417332924198985389675342 (0x89F4F43BE7E8DFE988E21ABB2B3D934E)
Complete name : 3D.4K.SAMSUNG_BoA_Hurricane.Venus.Live_2160p_HEVC_AC-3.5.1.mkv
Format : Matroska
Format version : Version 2
File size : 1.13 GiB
Duration : 3 min 26 s
Overall bit rate : 47.0 Mbps
Movie name : SM_TOWN_CONCERT_3D.Title3
Encoded date : UTC 2016-11-27 20:23:44
Writing application : DVDFab 9.3.1.9
Writing library : libebml v0.7.8 + libmatroska v0.8.1

Video
ID : 1
Format : HEVC
Format/Info : High Efficiency Video Coding
Format profile : [email protected]@High
Codec ID : V_MPEGH/ISO/HEVC
Duration : 3 min 26 s
Bit rate : 45.5 Mbps
Width : 3840 pixels
Height : 2160 pixels
Display aspect ratio : 16:9
Frame rate mode : Constant
Frame rate : 23.976 (24000/1001) FPS
Color space : YUV
Chroma subsampling : 4:2:0
Bit depth : 8 bits
Bits/(Pixel*Frame) : 0.229
Stream size : 1.09 GiB (97%)
Default : Yes
Forced : No
Color range : Limited
Color primaries : BT.709
Transfer characteristics : BT.709
Matrix coefficients : BT.709

Audio
ID : 2
Format : AC-3
Format/Info : Audio Coding 3
Format settings, Endianness : Big
Codec ID : A_AC3
Duration : 3 min 26 s
Bit rate mode : Constant
Bit rate : 640 kbps
Channel(s) : 6 channels
Channel positions : Front: L C R, Side: L R, LFE
Sampling rate : 48.0 kHz
Frame rate : 31.250 FPS (1536 spf)
Bit depth : 16 bits
Compression mode : Lossy
Stream size : 15.7 MiB (1%)
Language : Korean
Service kind : Complete Main
Default : Yes
Forced : No
建議在大屏幕3D 4K電視上觀看才能體驗最佳的3D現場效果!暫時沒有3D 4K電視的網友可選擇暴風影音5(2016年之前的版本)影音先鋒等PC版播放器把視頻切換成紅藍格式3D來播放!

MKV百度云盤
游客,如果您要查看本帖隱藏內容請回復



分享到:  QQ好友和群QQ好友和群
2#
2017-4-9 21:54:41
樓主厲害,資源真棒。
TV應用下載
3#
2017-4-9 22:08:12
可惜是3d的
4#
2017-4-9 22:18:26
真是難得給力的資源啊。
5#
2017-4-9 22:20:31
不錯,大力支持!
6#
2017-4-9 22:23:32
再來看寶兒的3D
感謝分享
7#
2017-4-9 22:54:18
thx so much
8#
2017-4-9 23:31:38
小手一抖,資源拿走。不要想念我小伙們
9#
2017-4-9 23:47:42
支持樓主,4K123有你更精彩!
10#
2017-4-10 00:54:41
不錯,大力支持!
您需要登錄后才可以回帖 登錄 | 注冊
當貝
江苏快3500期走势图