找回密碼
 注冊

QQ登錄

只需一步,快速開始

[百度]Girls.Day-Expectation(3D+4K-LG.demo)[MKV][785M][2160P]

1330
回復
295653
查看
[復制鏈接]
1#
來源:4K視頻下載 2019-2-8 21:32:17 回帖獎勵 |閱讀模式
[百度]Girls.Day-Expectation(3D+4K-LG.demo)[MKV][785M][2160P]
[百度]Girls.Day-Expectation(3D+4K-LG.demo)[MKV][785M][2160P]
[百度]Girls.Day-Expectation(3D+4K-LG.demo)[MKV][785M][2160P]
[百度]Girls.Day-Expectation(3D+4K-LG.demo)[MKV][785M][2160P]
[百度]Girls.Day-Expectation(3D+4K-LG.demo)[MKV][785M][2160P]

K:\Girls.Day-Expectation(3D+4K-LG.demo).mkv
   General
      Unique ID : 184910490941714358126236528394472570283 (0x8B1C77144E685BA2899582825CCCBDAB)
      Complete name : K:\Girls.Day-Expectation(3D+4K-LG.demo).mkv
      Format : Matroska
      Format version : Version 4 / Version 2
      File size : 785 MiB
      Duration : 3 min 21 s
      Overall bit rate : 32.7 Mb/s
      Encoded date : UTC 2014-09-24 04:35:24
      Writing application : mkvmerge v7.2.0 ('On Every Street') 64bit built on Sep 13 2014 15:52:10
      Writing library : libebml v1.3.0 + libmatroska v1.4.1
   Video #2
      ID : 2
      Format : AVC
      Format/Info : Advanced Video Codec
      Format profile : [email protected]
      Format settings, CABAC : Yes
      Format settings, ReFrames : 5 frames
      Codec ID : V_MPEG4/ISO/AVC
      Duration : 3 min 21 s
      Bit rate : 33.0 Mb/s
      Width : 3 840 pixels
      Height : 2 160 pixels
      Display aspect ratio : 16:9
      Frame rate mode : Constant
      Frame rate : 29.970 (29970/1000) FPS
      Color space : YUV
      Chroma subsampling : 4:2:0
      Bit depth : 8 bits
      Scan type : Progressive
      Bits/(Pixel*Frame) : 0.133
      Stream size : 780 MiB (99%)
      Writing library : x264 core 142 r2453 ea0ca51
      Encoding settings : cabac=1 / ref=5 / deblock=1:0:0 / analyse=0x3:0x113 / me=umh / subme=8 / psy=1 / psy_rd=1.00:0.00 / mixed_ref=1 / me_range=16 / chroma_me=1 / trellis=1 / 8x8dct=1 / cqm=0 / deadzone=21,11 / fast_pskip=1 / chroma_qp_offset=-2 / threads=8 / lookahead_threads=8 / sliced_threads=1 / slices=8 / nr=0 / decimate=1 / interlaced=0 / bluray_compat=0 / constrained_i**a=0 / bframes=0 / weightp=2 / keyint=250 / keyint_min=25 / scenecut=40 / i**a_refresh=0 / rc=abr / mbtree=0 / bitrate=33000 / ratetol=1.0 / qcomp=0.60 / qpmin=0 / qpmax=69 / qpstep=4 / ip_ratio=1.40 / aq=1:1.00
      Language : English
      Default : Yes
      Forced : No
   Audio #1
      ID : 1
      Format : AAC
      Format/Info : Advanced Audio Codec
      Format profile : LC
      Codec ID : A_AAC
      Duration : 3 min 21 s
      Bit rate : 192 kb/s
      Channel(s) : 2 channels
      Channel positions : Front: L R
      Sampling rate : 48.0 kHz
      Frame rate : 46.875 FPS (1024 spf)
      Compression mode : Lossy
      Delay relative to video : 21 ms
      Stream size : 4.55 MiB (1%)
      Default : Yes
      Forced : No

游客,如果您要查看本帖隱藏內容請回復


分享到:  QQ好友和群QQ好友和群
2#
2019-2-8 22:25:51
支持樓主,4K123有你更精彩!
TV應用下載
3#
2019-2-8 22:41:04
支持樓主,4K123有你更精彩!
4#
2019-2-8 22:43:08
支持樓主,4K123有你更精彩!
5#
2019-2-8 22:44:37
看起來好像不錯的樣子
6#
2019-2-8 22:58:52
支持樓主,4K123有你更精彩!
7#
2019-2-8 23:47:04
支持樓主,4K123有你更精彩!
8#
2019-2-9 00:04:22
支持樓主,4K123有你更精彩!
9#
2019-2-9 00:34:55
支持樓主,4K123有你更精彩!
10#
2019-2-9 01:30:18
支持樓主,4K123有你更精彩!
您需要登錄后才可以回帖 登錄 | 注冊
當貝
江苏快3500期走势图